evolution x5

os melhores downloads


Você não está conectado. Conecte-se ou registre-se

Alvin and The Chipmunks 3 Chipwrecked 2011 CAM XVID DTRG

Ver o tópico anterior Ver o tópico seguinte Ir em baixo  Mensagem [Página 1 de 1]

Admin


Admin
Admin


infor
http://www.imdb.com/title/tt1615918/

Format : AVI
Format/Info : Audio Video Interleave
File size : 1.18 GiB
Duration : 1h 20mn
Overall bit rate : 2 102 Kbps
Writing library : VirtualDub build 32842/release

Video
ID : 0
Format : MPEG-4 Visual
Format profile : Advanced Simple@L5
Format settings, BVOP : 1
Format settings, QPel : No
Format settings, GMC : No warppoints
Format settings, Matrix : Default (H.263)
Muxing mode : Packed bitstream
Codec ID : XVID
Codec ID/Hint : XviD
Duration : 1h 20mn
Bit rate : 1 962 Kbps
Width : 624 pixels
Height : 338 pixels
Display aspect ratio : 16:9
Frame rate : 29.970 fps
Color space : YUV
Chroma subsampling : 4:2:0
Bit depth : 8 bits
Scan type : Progressive
Compression mode : Lossy
Bits/(Pixel*Frame) : 0.310
Stream size : 1.10 GiB (93%)
Writing library : XviD 64

Audio
ID : 1
Format : MPEG Audio
Format version : Version 1
Format profile : Layer 3
Codec ID : 55
Codec ID/Hint : MP3
Duration : 1h 20mn
Bit rate mode : Constant
Bit rate : 128 Kbps
Channel(s) : 2 channels
Sampling rate : 44.1 KHz
Compression mode : Lossy
Stream size : 73.6 MiB (6%)
Alignment : Split accross interleaves
Interleave, duration : 33 ms (1.00 video frame)
Interleave, preload duration : 500 ms

Jason Lee ... Dave
David Cross ... Ian
Jenny Slate ... Zoe
Justin Long ... Alvin (voz)
Matthew Gray Gubler ... Simon (voz)
Jesse McCartney ... Theodore (voz)
Amy Poehler ... Eleanor (voz)
Anna Faris ... Jeanette (voz)
Christina Applegate ... Brittany (voz)
Alan Tudyk ... Simone (voz)
Michael P. Northey ... Hawaiian Shirt Guy
Sophia Aguiar ... Club Woman #1
Lauren Gottlieb ... Club Woman #2
Tera Perez ... Club Woman #3
Andy Buckley ... Captain Correlli
Chad Krowchuk ... Waiter
Luisa D'Oliveira ... Tessa
Tucker Albrizzi ... Tucker / Kite Kid
Nelson Wong ... Casino Guy
Michael Karman ... Excursion Clerk
Amber-Rochelle DeMarco ... Damsel #1
Marcela Caceres ... Damsel #2
Natalie Sutcliffe ... Damsel #3
Ian Harmon ... Monster
Phyllis Smith ... Flight Attendant

Playing around while aboard a cruise ship, the Chipmunks and Chipettes accidentally go overboard and end up marooned in a tropical paradise. They discover their new turf is not as deserted as it seems.






video
http://www.youtube.com/watch?v=iiL1X3DzQic&feature=player_embedded

download

Ver perfil do usuário http://evolutionx5.forumgratis.com.pt

Ver o tópico anterior Ver o tópico seguinte Voltar ao Topo  Mensagem [Página 1 de 1]

Permissão deste fórum:
Você não pode responder aos tópicos neste fórum